extratorrent - A Fan Made Alternative Login   |   Register
Important Information
Registrations are open now
-------------------------------------

Please click here to register with Extratorrent2 to recieve latest updates, add bookmarks and to post comments.

Friends
Friends

1) ProxyFix

Extratorrent2 > Categories > Movies > Game of Thrones S02E06 720p BluRay x264 AAC ESub Dual Audio [Hindi + English] 500MB [CraZzyBoY] torrent


Browse Movies torrents

Game of Thrones S02E06 720p BluRay x264 AAC ESub Dual Audio [Hindi + English] 500MB [CraZzyBoY] torrent


Download torrent: Download Game of Thrones S02E06 720p BluRay x264 AAC ESub Dual Audio [Hindi + English] 500MB [CraZzyBoY] torrent Magnet link Bookmark Torrent: Game of Thrones S02E06 720p BluRay x264 AAC ESub Dual Audio [Hindi + English] 500MB [CraZzyBoY]   Game of Thrones S02E06 720p BluRay x264 AAC ESub Dual Audio [Hindi + English] 500MB [CraZzyBoY] torrent
Info hash: B551DF0A27D969742EEFBD60EBEC8B54A8CEC1AA
Category: Categories > Movies
Trackers:
View all torrent trackers >
Health:
 seeds: 22 ,  leechers: 6 |  Update >
Torrent language: Hindi Hindi
Total Size: 500.0 MB
Files List:
4    View torrent files >
Uploader:
CrazzyBoy
Torrent added: October 26, 2018, 4:30 pm
Tags: game, of, thrones, season, 02, hindi, dubbed, episode, 06, action, history
Users rating: ---, not rated. please login to rate.

Download Game of Thrones S02E06 720p BluRay x264 AAC ESub Dual Audio [Hindi + English] 500MB [CraZzyBoY] torrent



Torrent Description

Quote:


Game of Thrones S02E06 720p BluRay x264 AAC ESub Dual Audio [Hindi + English] 500MB [CraZzyBoY]
Like FaceBook Page



Visit & Support www.MoviezAddiction.website


Special Thanks To Khiladi786 For Hindi Audio
Please Note : 18+ Scene Is synced with English Audio
7th Episode Coming Soon...
'Work in Progress'




Game of Thrones S02E06 720p BluRay x264 AAC ESub Dual Audio [Hindi + English] 500MB [CraZzyBoY]


Take It Or Leave It
Like Our Work Just leave Only 1 Valuable Comment
Keep Visit and Support http://moviezaddiction.website


General
Format                                   : Matroska
File size                                : 500 MiB
Duration                                 : 52 min 45 s
Overall bit rate                         : 1 306 kb/s
Movie name                               : MoviezAddiction.Website | Game of Thrones S02E06
Encoded date                             : UTC 2018-09-08 16:07:46
Writing application                      : mkvmerge v26.0.0 ('In The Game') 64-bit

Video
Format                                   : AVC
Duration                                 : 53 min 59 s
Bit rate                                 : 1 109 kb/s
Width                                    : 1 280 pixels
Height                                   : 720 pixels
Display aspect ratio                     : 16:9
Frame rate mode                          : Constant
Frame rate                               : 23.976 (24000/1001) FPS
Stream size                              : 425 MiB (85%)
Title                                    : MoviezAddiction.Website
Language                                 : English

Audio #1
ID                                       : 1
Format                                   : AAC
Duration                                 : 52 min 45 s
Bit rate                                 : 132 kb/s
Channel(s)                               : 2 channels
Stream size                              : 49.5 MiB (10%)
Title                                    : MoviezAddiction.Website
Language                                 : Hindi

Audio #2
Format                                   : AAC
Duration                                 : 53 min 59 s
Bit rate                                 : 64.0 kb/s
Channel(s)                               : 2 channels
Sampling rate                            : 48.0 kHz
Stream size                              : 24.5 MiB (5%)
Title                                    : MoviezAddiction.Website
Language                                 : English

Text
Format                                   : UTF-8
Duration                                 : 49 min 32 s
Stream size                              : 26.7 KiB (0%)
Title                                    : MoviezAddiction.Website
Language                                 : English



Myrcella, Cersei's daughter, is sent away from King's Landing. Theon manages to take Winterfell and executes Cassel, a henchman, for insulting him. Osha, the captured wildling, helps Brandon and Rickon escape. Robb reunites with the healer Maegyr. At the Fist of the First Men, Snow captures a Wildling named Ygritte, but gets separated from his patrol when she tries to escape and he is forced to chase her. Joffrey incites a riot at King's Landing, in which he is nearly killed and Sansa is nearly raped. Tywin allows Baelish to seek the allegiance of the Tyrells. An officer suspects Arya; and she has H'ghar kill him. Robb receives news of Theon's plans and sends men to retake Winterfell. At Qarth, Daenerys tries to procure a ship to take her people to Westeros, all the while keeping Daxos at bay. Daenerys' dragons are stolen.












Download Game of Thrones S02E06 720p BluRay x264 AAC ESub Dual Audio [Hindi + English] 500MB [CraZzyBoY] torrent


Related Torrents


Comments   (please login to add your comment!)

4u key     waves v9r16     coldplay a head of dreams     amadeus 1080p     windows 7 boot     obscene     world war 2     dji     hancock 2008 1080p     zen vr     up tat xxx     freshmen anal orientation 2     21naturals alexis brill     gay     interview xxx     slave     stand     alina li 1080p     pirates of the caribbean     1975     tam     ant man and wasp hindi     babes     brother load 3     


Home - Browse Torrents

Made with love by an Extratorrent Fan!