extratorrent - A Fan Made Alternative Login   |   Register
Important Information
Registrations are open now
-------------------------------------

Please click here to register with Extratorrent2 to recieve latest updates, add bookmarks and to post comments.

Friends
Friends

1) ProxyFix

Extratorrent2 > Categories > Movies > The Incredibles 2004 720p BluRay x264 Dual Audio [Hindi DD 5.1 - English 2.0] ESub [MW] torrent


Browse Movies torrents

The Incredibles 2004 720p BluRay x264 Dual Audio [Hindi DD 5.1 - English 2.0] ESub [MW] torrent


Download torrent: Download The Incredibles 2004 720p BluRay x264 Dual Audio [Hindi DD 5.1 - English 2.0] ESub [MW] torrent Magnet link Bookmark Torrent: The Incredibles 2004 720p BluRay x264 Dual Audio [Hindi DD 5.1 - English 2.0] ESub [MW]   The Incredibles 2004 720p BluRay x264 Dual Audio [Hindi DD 5.1 - English 2.0] ESub [MW] torrent
Info hash: 010BFE633B133B772990241E923316A6B3ADC2B1
Category: Categories > Movies
Trackers:
View all torrent trackers >
Health:
 seeds: 21 ,  leechers: 11 |  Update >
Torrent language: Hindi Hindi
Total Size: 1.4 GB
Files List:
1    View torrent files >
Uploader:
moviezworldz
Torrent added: October 23, 2018, 4:40 pm
Tags: Animation, Action, Adventure
Users rating: ---, not rated. please login to rate.

Download The Incredibles 2004 720p BluRay x264 Dual Audio [Hindi DD 5.1 - English 2.0] ESub [MW] torrent



Torrent Description





General
Format : Matroska
Format version : Version 4 / Version 2
File size : 1.37 GiB
Duration : 1 h 55 min
Overall bit rate : 1 694 kb/s

Video
ID : 1
Format : AVC
Format/Info : Advanced Video Codec
Format profile :
Format settings : CABAC / 9 Ref Frames
Format settings, CABAC : Yes
Format settings, RefFrames : 9 frames
Codec ID : V_MPEG4/ISO/AVC
Duration : 1 h 55 min
Bit rate : 1 208 kb/s
Width : 1 280 pixels
Height : 538 pixels
Display aspect ratio : 2.40:1
Frame rate mode : Constant
Frame rate : 23.976 (24000/1001) FPS
Color space : YUV
Chroma subsampling : 4:2:0
Bit depth : 8 bits
Scan type : Progressive
Bits/(Pixel*Frame) : 0.073
Stream size : 997 MiB (71%)
Writing library : x264 core 133 r2334 a3ac64b
Default : Yes
Forced : No

Audio #1
ID : 2
Format : E-AC-3
Format/Info : Enhanced Audio Coding 3
Codec ID : A_EAC3
Duration : 1 h 55 min
Bit rate mode : Constant
Bit rate : 384 kb/s
Channel(s) : 6 channels
Channel positions : Front: L C R, Side: L R, LFE
Sampling rate : 48.0 kHz
Frame rate : 187.500 FPS (256 SPF)
Compression mode : Lossy
Stream size : 317 MiB (23%)
Language : Hindi
Service kind : Complete Main
Default : Yes
Forced : No

Audio #2
ID : 3
Format : AAC
Format/Info : Advanced Audio Codec
Format profile : HE-AAC / LC
Format settings : Explicit
Codec ID : A_AAC-2
Duration : 1 h 55 min
Bit rate : 99.8 kb/s
Channel(s) : 6 channels
Channel positions : Front: L C R, Side: L R, LFE
Sampling rate : 48.0 kHz / 24.0 kHz
Frame rate : 23.438 FPS (1024 SPF)
Compression mode : Lossy
Delay relative to video : 31 ms
Stream size : 82.4 MiB (6%)
Language : English
Default : No
Forced : No

Text
ID : 4
Format : UTF-8
Codec ID : S_TEXT/UTF8
Codec ID/Info : UTF-8 Plain Text
Duration : 1 h 47 min
Bit rate : 63 b/s
Count of elements : 1334
Stream size : 49.7 KiB (0%)
Language : English
Default : Yes
Forced : No


Click To Enlarge Image









Download The Incredibles 2004 720p BluRay x264 Dual Audio [Hindi DD 5.1 - English 2.0] ESub [MW] torrent


Related Torrents


Comments   (please login to add your comment!)

young teen loves bbc a little too much     czech     photostory deluxe     the gifted s02e03 720p     alyssa     het tweede gelaat control 2017     rocky     milf     young and     jessica robbin 1080p     nathaly cherie cuties     sarkar 3 2017     xxx 480p     buddy guy     history of horror     s new     unreal     all you     2980     stacey     lana del rey lust for life     the last ship 3 1080p     august ames     very thin     


Home - Browse Torrents

Made with love by an Extratorrent Fan!