extratorrent - A Fan Made Alternative Login   |   Register
Important Information
Registrations are open now
-------------------------------------

Please click here to register with Extratorrent2 to recieve latest updates, add bookmarks and to post comments.

Friends
Friends

1) ProxyFix

Extratorrent2 > Categories > Movies > Ant Man And The Wasp (2018) Dual Audio 720p WEB-DL [Audio Cleand] [Hindi-English] x264 1GB - 1337xHD torrent


Browse Movies torrents

Ant Man And The Wasp (2018) Dual Audio 720p WEB-DL [Audio Cleand] [Hindi-English] x264 1GB - 1337xHD torrent


Download torrent: Download Ant Man And The Wasp (2018) Dual Audio 720p WEB-DL [Audio Cleand] [Hindi-English] x264 1GB - 1337xHD torrent Magnet link Bookmark Torrent: Ant Man And The Wasp (2018) Dual Audio 720p WEB-DL [Audio Cleand] [Hindi-English] x264 1GB - 1337xHD   Ant Man And The Wasp (2018) Dual Audio 720p WEB-DL [Audio Cleand] [Hindi-English] x264 1GB - 1337xHD torrent
Info hash: EC8CBB29E2650AC8E736C33DB074B90F430FBA3B
Category: Categories > Movies
Trackers:
View all torrent trackers >
Health:
 seeds: 6 ,  leechers: 5 |  Update >
Torrent language: Hindi Hindi
Total Size: 1.0 GB
Files List:
1    View torrent files >
Uploader:
HDFilmBoss
Torrent added: October 22, 2018, 4:30 pm
Users rating: ---, not rated. please login to rate.

Download Ant Man And The Wasp (2018) Dual Audio 720p WEB-DL [Audio Cleand] [Hindi-English] x264 1GB - 1337xHD torrent



Torrent Description

http://1337xhd.com/
http://hdfilmboss.mobi/





http://hdfilmboss.mobi/
http://1337xhd.com/

General
Format : Matroska
Format version : Version 4 / Version 2
File size : 1.02 GiB
Duration : 1 h 58 min
Overall bit rate : 1 238 kb/s
Movie name : WWW.HDFilmBoss.Mobi
Encoded date : UTC 2018-10-02 12:17:23
Writing application : mkvmerge v25.0.0 ('Prog Noir') 32-bit
Writing library : libebml v1.3.6 + libmatroska v1.4.9

Video
ID : 1
Format : AVC
Format/Info : Advanced Video Codec
Format profile :
Format settings : CABAC / 4 Ref Frames
Format settings, CABAC : Yes
Format settings, RefFrames : 4 frames
Codec ID : V_MPEG4/ISO/AVC
Duration : 1 h 58 min
Bit rate : 1 115 kb/s
Width : 1 280 pixels
Height : 536 pixels
Display aspect ratio : 2.40:1
Frame rate mode : Constant
Frame rate : 25.000 FPS
Color space : YUV
Chroma subsampling : 4:2:0
Bit depth : 8 bits
Scan type : Progressive
Bits/(Pixel*Frame) : 0.065
Stream size : 936 MiB (89%)
Title : WWW.HDFilmBoss.Mobi
Writing library : x264 core 148 r2643 5c65704
Language : English
Default : Yes
Forced : No

Audio
ID : 2
Format : AAC
Format/Info : Advanced Audio Codec
Format profile : LC
Codec ID : A_AAC-2
Duration : 1 h 58 min
Bit rate : 128 kb/s
Channel(s) : 1 channel
Channel positions : Front: C
Sampling rate : 44.1 kHz
Frame rate : 43.066 FPS (1024 SPF)
Compression mode : Lossy
Delay relative to video : -25 ms
Stream size : 108 MiB (10%)
Title : WWW.HDFilmBoss.Mobi
Language : Hindi
Default : Yes
Forced : No











Download Ant Man And The Wasp (2018) Dual Audio 720p WEB-DL [Audio Cleand] [Hindi-English] x264 1GB - 1337xHD torrent


Related Torrents


Comments   (please login to add your comment!)


Home - Browse Torrents

Made with love by an Extratorrent Fan!