extratorrent - A Fan Made Alternative Login   |   Register
Important Information
Registrations are open now
-------------------------------------

Please click here to register with Extratorrent2 to recieve latest updates, add bookmarks and to post comments.

Friends
Friends

1) ProxyFix

Extratorrent2 > Categories > Movies > Lost in OZ S01 Complete Series Dual Audio 720p WEB-DL [Hindi-English] x264 950MB -1337xHD torrent


Browse Movies torrents

Lost in OZ S01 Complete Series Dual Audio 720p WEB-DL [Hindi-English] x264 950MB -1337xHD torrent


Download torrent: Download Lost in OZ S01 Complete Series Dual Audio 720p WEB-DL [Hindi-English] x264 950MB -1337xHD torrent Magnet link Bookmark Torrent: Lost in OZ S01 Complete Series Dual Audio 720p WEB-DL [Hindi-English] x264 950MB -1337xHD   Lost in OZ S01 Complete Series Dual Audio 720p WEB-DL [Hindi-English] x264 950MB -1337xHD torrent
Info hash: 7EE654EC80D82CF4B29BE0071B2FFB5D5924D2B0
Category: Categories > Movies
Trackers:
View all torrent trackers >
Health:
 seeds: 1 ,  leechers: 1 |  Update >
Torrent language: Hindi Hindi
Total Size: 951.3 MB
Files List:
1    View torrent files >
Uploader:
1337xHD
Torrent added: October 23, 2018, 4:56 pm
Users rating: ---, not rated. please login to rate.

Download Lost in OZ S01 Complete Series Dual Audio 720p WEB-DL [Hindi-English] x264 950MB -1337xHD torrent



Torrent Description

http://1337xhd.com/
http://hdfilmboss.mobi/





General
Format : Matroska
Format version : Version 4 / Version 2
File size : 951 MiB
Duration : 4 h 58 min
Overall bit rate : 445 kb/s
Movie name : WWW.1337xHD.Com
Encoded date : UTC 2018-10-16 06:47:36
Writing application : mkvmerge v25.0.0 ('Prog Noir') 32-bit
Writing library : libebml v1.3.6 + libmatroska v1.4.9

Video
ID : 1
Format : AVC
Format/Info : Advanced Video Codec
Format profile :
Format settings : CABAC / 4 Ref Frames
Format settings, CABAC : Yes
Format settings, RefFrames : 4 frames
Codec ID : V_MPEG4/ISO/AVC
Duration : 4 h 58 min
Bit rate : 394 kb/s
Width : 850 pixels
Height : 480 pixels
Display aspect ratio : 16:9
Frame rate mode : Constant
Frame rate : 25.000 FPS
Color space : YUV
Chroma subsampling : 4:2:0
Bit depth : 8 bits
Scan type : Progressive
Bits/(Pixel*Frame) : 0.039
Stream size : 844 MiB (89%)
Title : WWW.1337xHD.Com
Writing library : x264 core 148 r2643 5c65704
Default : Yes
Forced : No

Audio
ID : 2
Format : AAC
Format/Info : Advanced Audio Codec
Format profile : LC
Codec ID : A_AAC-2
Duration : 4 h 58 min
Bit rate : 48.0 kb/s
Channel(s) : 1 channel
Channel positions : Front: C
Sampling rate : 44.1 kHz
Frame rate : 43.066 FPS (1024 SPF)
Compression mode : Lossy
Delay relative to video : -46 ms
Stream size : 103 MiB (11%)
Title : WWW.1337xHD.Com
Language : Hindi
Default : Yes
Forced : No




http://hdfilmboss.mobi/
http://1337xhd.com/











Download Lost in OZ S01 Complete Series Dual Audio 720p WEB-DL [Hindi-English] x264 950MB -1337xHD torrent


Related Torrents


Comments   (please login to add your comment!)

despicable 2017     daphne     mal     dani daniels     compilation     banjo     chicago pd s01e09     chawlochitro circus 2017     feist pleasure     monamour     candyman 1992     brazzers new     720p hindi bhatti87     brandi love s the interview     brandi love     battle of the sexes     b grade bold     black cock     big black     two and a half men     lela     z world     barbra streisand     assholefever     


Home - Browse Torrents

Made with love by an Extratorrent Fan!