extratorrent - A Fan Made Alternative Login   |   Register
Important Information
Registrations are open now
-------------------------------------

Please click here to register with Extratorrent2 to recieve latest updates, add bookmarks and to post comments.

Friends
Friends

1) ProxyFix

Extratorrent2 > Categories > Movies > Ocean Trilogy x264 720p Esub BluRay Dual Audio English Hindi GOPISAHI torrent


Browse Movies torrents

Ocean Trilogy x264 720p Esub BluRay Dual Audio English Hindi GOPISAHI torrent


Download torrent: Download Ocean Trilogy x264 720p Esub BluRay Dual Audio English Hindi GOPISAHI torrent Magnet link Bookmark Torrent: Ocean Trilogy x264 720p Esub BluRay Dual Audio English Hindi GOPISAHI   Ocean Trilogy x264 720p Esub BluRay Dual Audio English Hindi GOPISAHI torrent
Info hash: 15EB49059CAFD81CA988011FAEF9B4A640141596
Category: Categories > Movies
Trackers:
View all torrent trackers >
Health:
 seeds: 8 ,  leechers: 13 |  Update >
Torrent language: English English
Total Size: 2.3 GB
Files List:
3    View torrent files >
Uploader:
PENDUDESI
Torrent added: October 23, 2018, 5:15 am
Users rating: ---, not rated. please login to rate.

Download Ocean Trilogy x264 720p Esub BluRay Dual Audio English Hindi GOPISAHI torrent



Torrent Description

http://www.gopisahi.pw/

Format : Matroska
Format version : Version 4 / Version 2
File size : 780 MiB
Duration : 1 h 56 min
Overall bit rate : 935 kb/s
Movie name : Oceans Eleven 2001 GOPISAHI

Video
Format : AVC
Format/Info : Advanced Video Codec
Codec ID : V_MPEG4/ISO/AVC
Duration : 1 h 56 min
Bit rate : 740 kb/s
Width : 1 264 pixels
Height : 528 pixels
Display aspect ratio : 2.40:1
Frame rate mode : Constant
Frame rate : 23.976 (24000/1001) FPS
Color space : YUV
Chroma subsampling : 4:2:0
Bit depth : 8 bits
Scan type : Progressive
Bits/(Pixel*Frame) : 0.046
Stream size : 617 MiB (79%)
Title : GOPISAHI
Writing library : x264 core 116 r2074 2641b9e

Audio #1
Format : AAC
Format/Info : Advanced Audio Codec
Duration : 1 h 56 min
Bit rate : 96.0 kb/s
Channel(s) : 2 channels
Channel positions : Front: L R
Sampling rate : 48.0 kHz
Frame rate : 46.875 FPS (1024 SPF)
Compression mode : Lossy
Delay relative to video : -125 ms
Stream size : 80.2 MiB (10%)
Title : GOPISAHI
Language : Hindi

Audio #2
Format : AAC
Format/Info : Advanced Audio Codec
Duration : 1 h 56 min
Bit rate : 96.0 kb/s
Channel(s) : 2 channels
Channel positions : Front: L R
Sampling rate : 48.0 kHz
Frame rate : 46.875 FPS (1024 SPF)
Compression mode : Lossy
Delay relative to video : -125 ms
Stream size : 80.0 MiB (10%)
Title : GOPISAHI
Language : English

Text
Language : English




Download Ocean Trilogy x264 720p Esub BluRay Dual Audio English Hindi GOPISAHI torrent


Related Torrents

Added  Size  Health
Download Magnet link Browse Movies torrent Ocean Trilogy 2001-2007 Bluray 720p x264 ac3 multisub jbr 1 in Movies - HD, by
PetaFOX
7y 6.6 GB 0 1



Comments   (please login to add your comment!)

party     hindi     wiki     the fate of the furious 1080p     parody     ozlem     veronica new     oro     nina elle     never     singh saab the great 2013 hindi     blackmeatwhitefeet nina elle     blindspot season 1     n0564     my wife     my dads hot girlfriend 34     18 basic instinct 2 2006     multi     mp4 x264     trapped in love julez jadon     mouth     milf dreams julia ann     kika 1993     momxxx     


Home - Browse Torrents

Made with love by an Extratorrent Fan!