extratorrent - A Fan Made Alternative Login   |   Register
Important Information
Registrations are open now
-------------------------------------

Please click here to register with Extratorrent2 to recieve latest updates, add bookmarks and to post comments.

Friends
Friends

1) ProxyFix

Extratorrent2 > Categories > Movies > Jurassic World Fallen Kingdom 2018 720p BluRay x264 Dual Audio [Hindi 5.1 - English 2.0] ESub [MW] torrent


Browse Movies torrents

Jurassic World Fallen Kingdom 2018 720p BluRay x264 Dual Audio [Hindi 5.1 - English 2.0] ESub [MW] torrent


Download torrent: Download Jurassic World Fallen Kingdom 2018 720p BluRay x264 Dual Audio [Hindi 5.1 - English 2.0] ESub [MW] torrent Magnet link Bookmark Torrent: Jurassic World Fallen Kingdom 2018 720p BluRay x264 Dual Audio [Hindi 5.1 - English 2.0] ESub [MW]   Jurassic World Fallen Kingdom 2018 720p BluRay x264 Dual Audio [Hindi 5.1 - English 2.0] ESub [MW] torrent
Info hash: 1C41F34BD75367BED9F2519369781774E6793C7E
Category: Categories > Movies
Trackers:
View all torrent trackers >
Health:
 seeds: 38 ,  leechers: 12 |  Update >
Torrent language: Hindi Hindi
Total Size: 1.1 GB
Files List:
1    View torrent files >
Uploader:
moviezworldz
Torrent added: October 27, 2018, 4:31 pm
Tags: Action, Adventure, Sci-Fi
Users rating: ---, not rated. please login to rate.

Download Jurassic World Fallen Kingdom 2018 720p BluRay x264 Dual Audio [Hindi 5.1 - English 2.0] ESub [MW] torrent



Torrent Description





General
Format : Matroska
Format version : Version 4 / Version 2
File size : 1.14 GiB
Duration : 2 h 8 min
Overall bit rate : 1 276 kb/s

Video
ID : 1
Format : AVC
Format/Info : Advanced Video Codec
Format profile :
Format settings : CABAC / 4 Ref Frames
Format settings, CABAC : Yes
Format settings, RefFrames : 4 frames
Codec ID : V_MPEG4/ISO/AVC
Duration : 2 h 8 min
Bit rate : 1 000 kb/s
Width : 1 280 pixels
Height : 536 pixels
Display aspect ratio : 2.40:1
Frame rate mode : Constant
Frame rate : 23.976 (24000/1001) FPS
Color space : YUV
Chroma subsampling : 4:2:0
Bit depth : 8 bits
Scan type : Progressive
Bits/(Pixel*Frame) : 0.061
Stream size : 900 MiB (77%)
Writing library : x264 core 155 r2901 7d0ff22
Default : Yes
Forced : No

Audio #1
ID : 2
Format : AAC
Format/Info : Advanced Audio Codec
Format profile : HE-AAC / LC
Format settings : Explicit
Codec ID : A_AAC-2
Duration : 2 h 8 min
Bit rate : 192 kb/s
Channel(s) : 6 channels
Channel positions : Front: L C R, Side: L R, LFE
Sampling rate : 48.0 kHz / 24.0 kHz
Frame rate : 23.438 FPS (1024 SPF)
Compression mode : Lossy
Stream size : 175 MiB (15%)
Language : Hindi
Default : Yes
Forced : No

Audio #2
ID : 4
Format : AAC
Format/Info : Advanced Audio Codec
Format profile : LC
Codec ID : A_AAC-2
Duration : 2 h 8 min
Bit rate : 96.0 kb/s
Channel(s) : 2 channels
Channel positions : Front: L R
Sampling rate : 48.0 kHz
Frame rate : 46.875 FPS (1024 SPF)
Compression mode : Lossy
Stream size : 88.1 MiB (8%)
Language : English
Default : No
Forced : No

Text
ID : 3
Format : VobSub
Muxing mode : zlib
Codec ID : S_VOBSUB
Codec ID/Info : Picture based subtitle format used on DVDs
Duration : 2 h 7 min
Bit rate : 6 025 b/s
Count of elements : 1771
Stream size : 5.48 MiB (0%)
Language : English
Default : Yes
Forced : No


Click To Enlarge Image










Download Jurassic World Fallen Kingdom 2018 720p BluRay x264 Dual Audio [Hindi 5.1 - English 2.0] ESub [MW] torrent


Related Torrents


Comments   (please login to add your comment!)

godzilla vs     britt james     2018 dual     black friday     natty     720p dual audio hindi english     porn games     ferozz     air force 1     juicy love     a s     gangbang her little white     bj cat     classic     wanna fuck my wife     my car     mari aikawa     idm pc     51 aac     anal fuck     big ass 2017     croix     poolla     d service     


Home - Browse Torrents

Made with love by an Extratorrent Fan!