extratorrent - A Fan Made Alternative Login   |   Register
Important Information
Registrations are open now
-------------------------------------

Please click here to register with Extratorrent2 to recieve latest updates, add bookmarks and to post comments.

Friends
Friends

1) ProxyFix

Extratorrent2 > Categories > Movies > The Legend of Tarzan 2016 720p BluRay x264 Dual Audio [Hindi DD 5.1 - English 2.0] ESub [MW] torrent


Browse Movies torrents

The Legend of Tarzan 2016 720p BluRay x264 Dual Audio [Hindi DD 5.1 - English 2.0] ESub [MW] torrent


Download torrent: Download The Legend of Tarzan 2016 720p BluRay x264 Dual Audio [Hindi DD 5.1 - English 2.0] ESub [MW] torrent Magnet link Bookmark Torrent: The Legend of Tarzan 2016 720p BluRay x264 Dual Audio [Hindi DD 5.1 - English 2.0] ESub [MW]   The Legend of Tarzan 2016 720p BluRay x264 Dual Audio [Hindi DD 5.1 - English 2.0] ESub [MW] torrent
Info hash: 96F374E7EBC8EA6DF5D4CD4F3CF8607D713ACF58
Category: Categories > Movies
Trackers:
View all torrent trackers >
Health:
 seeds: 17 ,  leechers: 16 |  Update >
Torrent language: Hindi Hindi
Total Size: 1.5 GB
Files List:
1    View torrent files >
Uploader:
moviezworldz
Torrent added: October 23, 2018, 4:40 pm
Tags: Action, Adventure, Drama
Users rating: ---, not rated. please login to rate.

Download The Legend of Tarzan 2016 720p BluRay x264 Dual Audio [Hindi DD 5.1 - English 2.0] ESub [MW] torrent



Torrent Description





General
Format : Matroska
Format version : Version 4 / Version 2
File size : 1.55 GiB
Duration : 1 h 49 min
Overall bit rate : 2 014 kb/s

Video
ID : 1
Format : AVC
Format/Info : Advanced Video Codec
Format profile :
Format settings : CABAC / 4 Ref Frames
Format settings, CABAC : Yes
Format settings, RefFrames : 4 frames
Codec ID : V_MPEG4/ISO/AVC
Duration : 1 h 49 min
Bit rate : 1 500 kb/s
Width : 1 280 pixels
Height : 534 pixels
Display aspect ratio : 2.40:1
Original display aspect ratio : 2.40:1
Frame rate mode : Constant
Frame rate : 23.976 (23976/1000) FPS
Color space : YUV
Chroma subsampling : 4:2:0
Bit depth : 8 bits
Scan type : Progressive
Bits/(Pixel*Frame) : 0.092
Stream size : 1.15 GiB (74%)
Writing library : x264 core 152 r2851M ba24899
Default : Yes
Forced : No

Audio #1
ID : 2
Format : E-AC-3
Format/Info : Enhanced Audio Coding 3
Codec ID : A_EAC3
Duration : 1 h 49 min
Bit rate mode : Constant
Bit rate : 384 kb/s
Channel(s) : 6 channels
Channel positions : Front: L C R, Side: L R, LFE
Sampling rate : 48.0 kHz
Frame rate : 187.500 FPS (256 SPF)
Compression mode : Lossy
Stream size : 302 MiB (19%)
Language : Hindi
Service kind : Complete Main
Default : Yes
Forced : No

Audio #2
ID : 3
Format : AAC
Format/Info : Advanced Audio Codec
Format profile : LC
Codec ID : A_AAC-2
Duration : 1 h 49 min
Bit rate : 128 kb/s
Channel(s) : 2 channels
Channel positions : Front: L R
Sampling rate : 48.0 kHz
Frame rate : 46.875 FPS (1024 SPF)
Compression mode : Lossy
Stream size : 101 MiB (6%)
Language : English
Default : No
Forced : No

Text
ID : 4
Format : VobSub
Muxing mode : zlib
Codec ID : S_VOBSUB
Codec ID/Info : Picture based subtitle format used on DVDs
Duration : 1 h 47 min
Bit rate : 1 193 b/s
Count of elements : 940
Stream size : 941 KiB (0%)
Language : English
Default : Yes
Forced : No


Click To Enlarge Image









Download The Legend of Tarzan 2016 720p BluRay x264 Dual Audio [Hindi DD 5.1 - English 2.0] ESub [MW] torrent


Related Torrents


Comments   (please login to add your comment!)


Home - Browse Torrents

Made with love by an Extratorrent Fan!