extratorrent - A Fan Made Alternative Login   |   Register
Important Information
Registrations are open now
-------------------------------------

Please click here to register with Extratorrent2 to recieve latest updates, add bookmarks and to post comments.

Friends
Friends

1) ProxyFix

Extratorrent2 > Categories > Movies > Sinister (2012) Dual Audio 720p BluRay [Hindi-English] x264 1.3GB ESub -1337xHD torrent


Browse Movies torrents

Sinister (2012) Dual Audio 720p BluRay [Hindi-English] x264 1.3GB ESub -1337xHD torrent


Download torrent: Download Sinister (2012) Dual Audio 720p BluRay [Hindi-English] x264 1.3GB ESub -1337xHD torrent Magnet link Bookmark Torrent: Sinister (2012) Dual Audio 720p BluRay [Hindi-English] x264 1.3GB ESub -1337xHD   Sinister (2012) Dual Audio 720p BluRay [Hindi-English] x264 1.3GB ESub -1337xHD torrent
Info hash: 6EC90259F1B05459F1514310067C25630C81BD27
Category: Categories > Movies
Trackers:
View all torrent trackers >
Health:
 seeds: 0 ,  leechers: 1 |  Update >
Torrent language: Hindi Hindi
Total Size: 1.3 GB
Files List:
1    View torrent files >
Uploader:
1337xHD
Torrent added: October 23, 2018, 5:04 am
Users rating: ---, not rated. please login to rate.

Download Sinister (2012) Dual Audio 720p BluRay [Hindi-English] x264 1.3GB ESub -1337xHD torrent



Torrent Description

http://hdfilmboss.mobi/
http://1337xhd.com/



Official Website http://hdfilmboss.mobi/
Official Website http://hdfilmboss.mobi/



General
Format : Matroska
Format version : Version 4 / Version 2
File size : 1.27 GiB
Duration : 1 h 49 min
Overall bit rate : 1 656 kb/s
Movie name : WWW.1337xHD.Com
Encoded date : UTC 2018-10-20 11:44:51
Writing application : mkvmerge v27.0.0 ('Metropolis') 64-bit
Writing library : libebml v1.3.6 + libmatroska v1.4.9

Video
ID : 1
Format : AVC
Format/Info : Advanced Video Codec
Format profile :
Format settings : CABAC / 4 Ref Frames
Format settings, CABAC : Yes
Format settings, ReFrames : 4 frames
Codec ID : V_MPEG4/ISO/AVC
Duration : 1 h 49 min
Bit rate : 1 514 kb/s
Width : 1 280 pixels
Height : 534 pixels
Display aspect ratio : 2.40:1
Frame rate mode : Constant
Frame rate : 25.000 FPS
Color space : YUV
Chroma subsampling : 4:2:0
Bit depth : 8 bits
Scan type : Progressive
Bits/(Pixel*Frame) : 0.089
Stream size : 1.17 GiB (92%)
Title : WWW.1337xHD.Com
Writing library : x264 core 148 r2643 5c65704
Language : Hindi
Default : Yes
Forced : No

Audio
ID : 2
Format : AAC
Format/Info : Advanced Audio Codec
Format profile : LC
Codec ID : A_AAC-2
Duration : 1 h 49 min
Bit rate : 128 kb/s
Channel(s) : 2 channels
Channel positions : Front: L R
Sampling rate : 44.1 kHz
Frame rate : 43.066 FPS (1024 SPF)
Compression mode : Lossy
Delay relative to video : -46 ms
Stream size : 100 MiB (8%)
Title : WWW.1337xHD.Com
Language : Hindi
Default : Yes
Forced : No










Download Sinister (2012) Dual Audio 720p BluRay [Hindi-English] x264 1.3GB ESub -1337xHD torrent


Related Torrents


Comments   (please login to add your comment!)

adyaksha     320 kbps     tiara malone     2017 blue planet ii     2009 unrated etrg     1998     1080p unexpected 2015     agde     blacked haley     logan evo     2010 nl     eos     720p     candy candy     super 8     game of thrones s01     arab street     batman x265 1080p     blu ray 720p     modernist     adventures     starship troopers 1997 hindi     hotel r     star wars 2     


Home - Browse Torrents

Made with love by an Extratorrent Fan!