extratorrent - A Fan Made Alternative Login   |   Register
Important Information
Registrations are open now
-------------------------------------

Please click here to register with Extratorrent2 to recieve latest updates, add bookmarks and to post comments.

Friends
Friends

1) ProxyFix

Extratorrent2 > Categories > Movies > The Darkest Minds (2018) 720p BluRay Dual Audio [Hindi - English] DD5.1 ~ Ranvijay torrent


Browse Movies torrents

The Darkest Minds (2018) 720p BluRay Dual Audio [Hindi - English] DD5.1 ~ Ranvijay torrent


Download torrent: Download The Darkest Minds (2018) 720p BluRay Dual Audio [Hindi - English] DD5.1 ~ Ranvijay torrent Magnet link Bookmark Torrent: The Darkest Minds (2018) 720p BluRay Dual Audio [Hindi - English] DD5.1 ~ Ranvijay   The Darkest Minds (2018) 720p BluRay Dual Audio [Hindi - English] DD5.1 ~ Ranvijay torrent
Info hash: BE7E0A9A577D5375A2601B6657493B876495C2EE
Category: Categories > Movies
Trackers:
View all torrent trackers >
Health:
 seeds: 4 ,  leechers: 4 |  Update >
Torrent language: Hindi Hindi
Total Size: 1.4 GB
Files List:
3    View torrent files >
Uploader:
TheFighter
Torrent added: October 23, 2018, 5:07 am
Tags: Ranvijay, ShareSpark
Users rating: ---, not rated. please login to rate.

Download The Darkest Minds (2018) 720p BluRay Dual Audio [Hindi - English] DD5.1 ~ Ranvijay torrent



Torrent Description





Join My Facebook Group

The Darkest Minds (2018) 720p BluRay Dual Audio [Hindi - English] DD5.1 ~ Ranvijay

Thanks To Invincible For Hindi Audio

Buy RDP Online




Format : Matroska
Format version : Version 4 / Version 2
File size : 1.43 GiB
Duration : 1 h 43 min
Overall bit rate : 1 973 kb/s
Movie name : The Darkest Minds (2018) 720p BluRay Dual Audio [Hindi - English] DD5.1 ~ Ranvijay

Video
ID : 1
Format : AVC
Duration : 1 h 43 min
Bit rate : 1 500 kb/s
Width : 1 280 pixels
Height : 536 pixels
Display aspect ratio : 2.40:1
Frame rate mode : Constant
Frame rate : 23.976 (24000/1001) FPS
Color space : YUV
Chroma subsampling : 4:2:0
Bit depth : 8 bits
Scan type : Progressive
Bits/(Pixel*Frame) : 0.091
Stream size : 1.09 GiB (76%)
Title : ~Ranvijay~

Audio #1
ID : 2
Format : AC-3
Format/Info : Audio Coding 3
Codec ID : A_AC3
Duration : 1 h 43 min
Bit rate mode : Constant
Bit rate : 224 kb/s
Channel(s) : 6 channels
Channel positions : Front: L C R, Side: L R, LFE
Sampling rate : 48.0 kHz
Frame rate : 31.250 FPS (1536 SPF)
Bit depth : 16 bits
Compression mode : Lossy
Stream size : 166 MiB (11%)
Title : ~Ranvijay~
Language : Hindi
Service kind : Complete Main
Default : Yes
Forced : Yes

Audio #2
ID : 3
Format : AC-3
Format/Info : Audio Coding 3
Codec ID : A_AC3
Duration : 1 h 43 min
Bit rate mode : Constant
Bit rate : 224 kb/s
Channel(s) : 6 channels
Channel positions : Front: L C R, Side: L R, LFE
Sampling rate : 48.0 kHz
Frame rate : 31.250 FPS (1536 SPF)
Bit depth : 16 bits
Compression mode : Lossy
Stream size : 166 MiB (11%)
Title : ~Ranvijay~
Language : English
Service kind : Complete Main
Default : No
Forced : No

Text
ID : 4
Format : PGS
Muxing mode : zlib
Codec ID : S_HDMV/PGS
Codec ID/Info : Picture based subtitle format used on BDs/HD-DVDs
Duration : 1 h 42 min
Bit rate : 45.5 kb/s
Count of elements : 2574
Stream size : 33.4 MiB (2%)
Title : ~Ranvijay~
Language : Hindi
Default : Yes
Forced : Yes
















Don't walk as you are king, walk as you don't care who the king is....!!






Download The Darkest Minds (2018) 720p BluRay Dual Audio [Hindi - English] DD5.1 ~ Ranvijay torrent


Related Torrents


Comments   (please login to add your comment!)

porn games     ferozz     air force 1     juicy love     britt james     a s     gangbang her little white     bj cat     classic     natty     wanna fuck my wife     my car     mari aikawa     idm pc     51 aac     anal fuck     big ass 2017     croix     poolla     d service     katthi     michael eric dyson     my mya     112213     


Home - Browse Torrents

Made with love by an Extratorrent Fan!