extratorrent - A Fan Made Alternative Login   |   Register
Important Information
Registrations are open now
-------------------------------------

Please click here to register with Extratorrent2 to recieve latest updates, add bookmarks and to post comments.

Friends
Friends

1) ProxyFix

Extratorrent2 > Categories > Movies > The Darkest Minds 2018 720p BluRay x264 Dual Audio [Hindi DD 5.1 - English 2.0] ESub [MW] torrent


Browse Movies torrents

The Darkest Minds 2018 720p BluRay x264 Dual Audio [Hindi DD 5.1 - English 2.0] ESub [MW] torrent


Download torrent: Download The Darkest Minds 2018 720p BluRay x264 Dual Audio [Hindi DD 5.1 - English 2.0] ESub [MW] torrent Magnet link Bookmark Torrent: The Darkest Minds 2018 720p BluRay x264 Dual Audio [Hindi DD 5.1 - English 2.0] ESub [MW]   The Darkest Minds 2018 720p BluRay x264 Dual Audio [Hindi DD 5.1 - English 2.0] ESub [MW] torrent
Info hash: 605764D9BBBC77C8114D128187AC2D0584FBE8BB
Category: Categories > Movies
Trackers:
View all torrent trackers >
Health:
 seeds: 129 ,  leechers: 91 |  Update >
Torrent language: Hindi Hindi
Total Size: 1.0 GB
Files List:
1    View torrent files >
Uploader:
moviezworldz
Torrent added: October 23, 2018, 5:24 am
Tags: Sci-Fi, Thriller
Users rating: ---, not rated. please login to rate.

Download The Darkest Minds 2018 720p BluRay x264 Dual Audio [Hindi DD 5.1 - English 2.0] ESub [MW] torrent



Torrent Description





General
Format : Matroska
Format version : Version 4 / Version 2
File size : 1.05 GiB
Duration : 1 h 43 min
Overall bit rate : 1 445 kb/s

Video
ID : 1
Format : AVC
Format/Info : Advanced Video Codec
Format profile :
Format settings : CABAC / 4 Ref Frames
Format settings, CABAC : Yes
Format settings, RefFrames : 4 frames
Codec ID : V_MPEG4/ISO/AVC
Duration : 1 h 43 min
Bit rate : 1 100 kb/s
Width : 1 280 pixels
Height : 536 pixels
Display aspect ratio : 2.40:1
Frame rate mode : Constant
Frame rate : 23.976 (24000/1001) FPS
Color space : YUV
Chroma subsampling : 4:2:0
Bit depth : 8 bits
Scan type : Progressive
Bits/(Pixel*Frame) : 0.067
Stream size : 811 MiB (76%)
Writing library : x264 core 155 r2901 7d0ff22
Default : Yes
Forced : No

Audio #1
ID : 2
Format : AC-3
Format/Info : Audio Coding 3
Codec ID : A_AC3
Duration : 1 h 43 min
Bit rate mode : Constant
Bit rate : 224 kb/s
Channel(s) : 6 channels
Channel positions : Front: L C R, Side: L R, LFE
Sampling rate : 48.0 kHz
Frame rate : 31.250 FPS (1536 SPF)
Bit depth : 16 bits
Compression mode : Lossy
Stream size : 166 MiB (15%)
Language : Hindi
Service kind : Complete Main
Default : Yes
Forced : No

Audio #2
ID : 3
Format : AAC
Format/Info : Advanced Audio Codec
Format profile : HE-AAC / LC
Format settings : Explicit
Codec ID : A_AAC-2
Duration : 1 h 43 min
Bit rate : 127 kb/s
Channel(s) : 2 channels
Channel positions : Front: L R
Sampling rate : 48.0 kHz / 24.0 kHz
Frame rate : 23.438 FPS (1024 SPF)
Compression mode : Lossy
Stream size : 94.1 MiB (9%)
Language : English
Default : No
Forced : No

Text
ID : 4
Format : UTF-8
Codec ID : S_TEXT/UTF8
Codec ID/Info : UTF-8 Plain Text
Duration : 1 h 36 min
Bit rate : 52 b/s
Count of elements : 1374
Stream size : 37.2 KiB (0%)
Language : English
Default : Yes
Forced : No


Click To Enlarge Image










Download The Darkest Minds 2018 720p BluRay x264 Dual Audio [Hindi DD 5.1 - English 2.0] ESub [MW] torrent


Related Torrents


Comments   (please login to add your comment!)

forty guns     airport ceo     12 on one     leah gotti sophia leone     anissa kate     jumanji 2017 1080p hindi     xxx milf     hub     ladyboyvice     bull 2016 s01e03     socialphobia     faults     reagan foxx     my wifes hot friend kortney     the smurfs 1080p     gospel     1080p 1999     johnson family vacation     new 05     bluecity     american sniper 2014     satyameva jayate     renata lia     dresscode     


Home - Browse Torrents

Made with love by an Extratorrent Fan!