extratorrent - A Fan Made Alternative Login   |   Register
Important Information
Registrations are open now
-------------------------------------

Please click here to register with Extratorrent2 to recieve latest updates, add bookmarks and to post comments.

Friends
Friends

1) ProxyFix

Extratorrent2 > Categories > Movies > Scorpion King The Book of Souls 2018 1080p WEB-DL DD 5.1 x264 [MW] torrent


Browse Movies torrents

Scorpion King The Book of Souls 2018 1080p WEB-DL DD 5.1 x264 [MW] torrent


Download torrent: Download Scorpion King The Book of Souls 2018 1080p WEB-DL DD 5.1 x264 [MW] torrent Magnet link Bookmark Torrent: Scorpion King The Book of Souls 2018 1080p WEB-DL DD 5.1 x264 [MW]   Scorpion King The Book of Souls 2018 1080p WEB-DL DD 5.1 x264 [MW] torrent
Info hash: 525117067419D58403BF5F0C59412761E4D91994
Category: Categories > Movies
Trackers:
View all torrent trackers >
Health:
 seeds: 66 ,  leechers: 28 |  Update >
Torrent language: English English
Total Size: 1.7 GB
Files List:
1    View torrent files >
Uploader:
moviezworldz
Torrent added: November 16, 2018, 4:30 pm
Tags: Action, Adventure, Fantasy
Users rating: ---, not rated. please login to rate.

Download Scorpion King The Book of Souls 2018 1080p WEB-DL DD 5.1 x264 [MW] torrent



Torrent Description





General
Format : Matroska
Format version : Version 4 / Version 2
File size : 1.67 GiB
Duration : 1 h 41 min
Overall bit rate : 2 354 kb/s

Video
ID : 1
Format : AVC
Format/Info : Advanced Video Codec
Format profile :
Format settings : CABAC / 4 Ref Frames
Format settings, CABAC : Yes
Format settings, RefFrames : 4 frames
Codec ID : V_MPEG4/ISO/AVC
Duration : 1 h 41 min
Bit rate : 2 000 kb/s
Width : 1 916 pixels
Height : 1 076 pixels
Display aspect ratio : 16:9
Frame rate mode : Constant
Frame rate : 23.976 (24000/1001) FPS
Color space : YUV
Chroma subsampling : 4:2:0
Bit depth : 8 bits
Scan type : Progressive
Bits/(Pixel*Frame) : 0.040
Stream size : 1.40 GiB (84%)
Writing library : x264 core 155 r2901 7d0ff22
Default : Yes
Forced : No

Audio
ID : 2
Format : AC-3
Format/Info : Audio Coding 3
Codec ID : A_AC3
Duration : 1 h 41 min
Bit rate mode : Constant
Bit rate : 384 kb/s
Channel(s) : 6 channels
Channel positions : Front: L C R, Side: L R, LFE
Sampling rate : 48.0 kHz
Frame rate : 31.250 FPS (1536 SPF)
Bit depth : 16 bits
Compression mode : Lossy
Stream size : 280 MiB (16%)
Language : English
Service kind : Complete Main
Default : Yes
Forced : No


Click To Enlarge Image








Download Scorpion King The Book of Souls 2018 1080p WEB-DL DD 5.1 x264 [MW] torrent


Related Torrents


Comments   (please login to add your comment!)

carolina sweets     presents     avicii     adventures     bad moms 1     punjabi     13 03 2018     swallows     fuck me like you hate me     worldmkv     naomi woods vixen     xxx     handmaid tale s02e10     hunter x     telugu hdrip     billa 2009 dual     messi     barely legal november     melina mason whose tit     village     pirates tales     hindi new     2017 bluworld     vikings complete hindi     


Home - Browse Torrents

Made with love by an Extratorrent Fan!