extratorrent - A Fan Made Alternative Login   |   Register
Important Information
Registrations are open now
-------------------------------------

Please click here to register with Extratorrent2 to recieve latest updates, add bookmarks and to post comments.

Friends
Friends

1) ProxyFix

Extratorrent2 > Categories > Movies > Enders Game (2013) Dual Audio 720p BluRay [Hindi DD5.1-English DD5.1] x264 1.2GB ESub -1337xHD torrent


Browse Movies torrents

Enders Game (2013) Dual Audio 720p BluRay [Hindi DD5.1-English DD5.1] x264 1.2GB ESub -1337xHD torrent


Download torrent: Download Enders Game (2013) Dual Audio 720p BluRay [Hindi DD5.1-English DD5.1] x264 1.2GB ESub -1337xHD torrent Magnet link Bookmark Torrent: Enders Game (2013) Dual Audio 720p BluRay [Hindi DD5.1-English DD5.1] x264 1.2GB ESub -1337xHD   Enders Game (2013) Dual Audio 720p BluRay [Hindi DD5.1-English DD5.1] x264 1.2GB ESub -1337xHD torrent
Info hash: 54082CB0E9F3E298B01E740D5084E355982C04D1
Category: Categories > Movies
Trackers:
View all torrent trackers >
Health:
 seeds: 0 ,  leechers: 2 |  Update >
Torrent language: Hindi Hindi
Total Size: 1.2 GB
Files List:
1    View torrent files >
Uploader:
1337xHD
Torrent added: October 23, 2018, 4:40 pm
Users rating: ---, not rated. please login to rate.

Download Enders Game (2013) Dual Audio 720p BluRay [Hindi DD5.1-English DD5.1] x264 1.2GB ESub -1337xHD torrent



Torrent Description

http://1337xhd.com/
http://hdfilmboss.mobi/





General
Format : Matroska
Format version : Version 4 / Version 2
File size : 1.16 GiB
Duration : 1 h 53 min
Overall bit rate : 1 464 kb/s
Movie name : WWW.1337xHD.Com
Encoded date : UTC 2018-10-18 09:56:02
Writing application : mkvmerge v27.0.0 ('Metropolis') 64-bit
Writing library : libebml v1.3.6 + libmatroska v1.4.9

Video
ID : 1
Format : AVC
Format/Info : Advanced Video Codec
Format profile :
Format settings : CABAC / 4 Ref Frames
Format settings, CABAC : Yes
Format settings, ReFrames : 4 frames
Codec ID : V_MPEG4/ISO/AVC
Duration : 1 h 53 min
Bit rate : 1 346 kb/s
Width : 1 280 pixels
Height : 544 pixels
Display aspect ratio : 2.35:1
Frame rate mode : Constant
Frame rate : 25.000 FPS
Color space : YUV
Chroma subsampling : 4:2:0
Bit depth : 8 bits
Scan type : Progressive
Bits/(Pixel*Frame) : 0.077
Stream size : 1.06 GiB (91%)
Title : WWW.1337xHD.Com
Writing library : x264 core 148 r2643 5c65704
Default : Yes
Forced : No

Audio
ID : 2
Format : AAC
Format/Info : Advanced Audio Codec
Format profile : LC
Codec ID : A_AAC-2
Duration : 1 h 53 min
Bit rate : 128 kb/s
Channel(s) : 2 channels
Channel positions : Front: L R
Sampling rate : 44.1 kHz
Frame rate : 43.066 FPS (1024 SPF)
Compression mode : Lossy
Delay relative to video : -46 ms
Stream size : 104 MiB (9%)
Title : WWW.1337xHD.Com
Language : Hindi
Default : Yes
Forced : No




http://hdfilmboss.mobi/
http://1337xhd.com/



Download Enders Game (2013) Dual Audio 720p BluRay [Hindi DD5.1-English DD5.1] x264 1.2GB ESub -1337xHD torrent


Related Torrents


Comments   (please login to add your comment!)

hindi dubbed     the reckoning     juventus     making mr right     immorallive     lolly small firstanalquest     knockout 720p     nayer     sexual     yesss     game of thrones s06     beyer     black nativity 2013     yeh jawaani hai deewani 1080p     midnight texas 1080p     the vampire diaries season 7     bollywood     1080p apt pupil     2017 multi     drishyam     3dequalizer     naseeb     2018 1080p dts     mia melano     


Home - Browse Torrents

Made with love by an Extratorrent Fan!